osu file format v14

[General]
AudioFilename: drugs are bad.mp3
AudioLeadIn: 2000
PreviewTime: 23857
Countdown: 0
SampleSet: Normal
StackLeniency: 0.7
Mode: 0
LetterboxInBreaks: 0
WidescreenStoryboard: 0

[Editor]
Bookmarks: 25249,140845
DistanceSpacing: 1
BeatDivisor: 4
GridSize: 4
TimelineZoom: 1.5

[Metadata]
Title:Injection
TitleUnicode:Injection
Artist:Rise Against
ArtistUnicode:Rise Against
Creator:pishifat
Version:Normal
Source:
Tags:the sufferer & and witness metal punk okoratu yauxo
BeatmapID:507485
BeatmapSetID:214092

[Difficulty]
HPDrainRate:4
CircleSize:3
OverallDifficulty:4
ApproachRate:5
SliderMultiplier:1
SliderTickRate:1

[Events]
//Background and Video events
0,0,"doggy.jpg",0,0
//Break Periods
2,19714,22657
2,83460,90584
//Storyboard Layer 0 (Background)
//Storyboard Layer 1 (Fail)
//Storyboard Layer 2 (Pass)
//Storyboard Layer 3 (Foreground)
//Storyboard Sound Samples

[TimingPoints]
0,285.714285714286,4,3,1,35,1,0
0,-111.111111111111,4,1,1,50,0,0
1000,-100,4,1,1,50,0,0
23857,-100,4,1,1,45,0,0
42142,-111.111111111111,4,1,1,50,0,1
46714,-100,4,1,1,55,0,1
55142,-100,4,1,1,55,0,0
55857,-100,4,1,1,55,0,1
65142,571.428571428571,4,1,1,40,1,0
65142,-55.5555555555556,4,1,1,41,0,0
66284,552.995391705069,4,1,1,40,1,1
66284,-55.5555555555556,4,1,1,41,0,0
67389,558.139534883721,4,1,1,40,1,0
67389,-55.5555555555556,4,1,1,41,0,0
68505,550.45871559633,4,1,1,40,1,1
68505,-55.5555555555556,4,1,1,40,0,1
69055,555.555555555556,4,1,1,40,1,1
69055,-55.5555555555556,4,1,1,40,0,1
69610,545.454545454546,4,1,1,40,1,0
70155,566.037735849057,4,1,1,40,1,1
70155,-55.5555555555556,4,1,1,41,0,0
70721,558.139534883721,4,1,1,40,1,1
71837,552.359033371692,4,1,1,40,1,0
71837,-55.5555555555556,4,1,1,41,0,0
74598,563.380281690141,4,1,1,40,1,1
74598,-55.5555555555556,4,1,1,41,0,1
75161,545.454545454546,4,1,1,40,1,1
75706,552.995391705069,4,1,1,40,1,1
75706,-55.5555555555556,4,1,1,40,0,1
76258,551.724137931035,4,1,1,40,1,0
76258,-55.5555555555556,4,1,1,41,0,0
77913,560.747663551402,4,1,1,40,1,1
77913,-55.5555555555556,4,1,1,41,0,1
78473,566.037735849057,4,1,1,40,1,0
79039,550.45871559633,4,1,1,40,1,1
79039,-55.5555555555556,4,1,1,41,0,0
79589,555.555555555556,4,1,1,40,1,1
80700,550.45871559633,4,1,1,40,1,0
80700,-55.5555555555556,4,1,1,40,0,0
82902,558.139534883721,4,3,2,50,1,0
83460,552.995391705069,4,3,2,50,1,1
84012,558.139534883721,4,3,2,50,1,1
85128,555.555555555556,4,3,2,50,1,0
86794,560.747663551402,4,3,2,50,1,1
87354,553.76095985233,4,3,2,50,1,0
91784,547.945205479452,4,3,2,50,1,0
91784,-55.5555555555556,4,3,2,51,0,0
92331,558.139534883721,4,3,2,50,1,1
92889,554.016620498615,4,3,2,50,1,1
92889,-55.5555555555556,4,3,2,51,0,0
93997,554.016620498615,4,3,2,50,1,0
93997,-55.5555555555556,4,3,2,50,0,0
96213,550.45871559633,4,3,2,50,1,0
96213,-55.5555555555556,4,3,2,51,0,0
98414,556.844547563805,4,3,2,50,1,0
98414,-55.5555555555556,4,3,2,51,0,0
100641,281.030444964871,4,1,1,45,1,0
101765,285.714285714286,4,1,1,45,1,0
105050,-100,4,1,1,55,0,1
113479,-100,4,1,1,55,0,0
114193,-100,4,1,1,55,0,1
123336,-100,4,1,1,50,0,0
132479,-100,4,1,1,45,0,0
142907,-100,4,1,1,35,0,0
144050,-100,4,1,1,25,0,0
145193,-100,4,1,1,15,0,0
146336,-100,4,2,1,5,0,0

[Colours]
Combo1 : 135,61,92
Combo2 : 93,93,93

[HitObjects]
362,65,0,6,0,L|472:77,2,89.9999972534181,2|2|2,3:0|3:0|0:3,0:0:0:0:
297,127,857,1,8,2:1:0:0:
264,165,1000,6,0,B|221:149|221:149|185:109|185:109|123:85,1,150,4|8,0:0|0:0,0:0:0:0:
47,133,1714,2,0,L|27:238,1,100,0|8,0:0|0:0,0:0:0:0:
42,330,2285,2,0,B|69:297|108:280|147:280,1,100,0|8,0:0|0:0,0:0:0:0:
211,335,2857,2,0,L|208:384,2,50,0|0|8,0:0|0:0|0:0,0:0:0:0:
216,285,3285,6,0,B|274:240|274:240|299:231|299:231|353:190,1,150,4|8,0:0|0:0,0:0:0:0:
374,107,4000,1,0,0:0:0:0:
296,44,4285,1,8,0:0:0:0:
196,55,4571,2,0,L|190:2,2,50,0|0|8,0:0|0:0|0:0,0:0:0:0:
211,151,5142,2,0,L|267:160,2,50,0|0|8,0:0|0:0|0:0,0:0:0:0:
160,148,5571,6,0,B|73:166|73:166|6:206,1,150,4|8,0:0|0:0,0:0:0:0:
102,255,6285,2,0,B|163:245|163:245|218:229,1,100,0|8,0:0|0:0,0:0:0:0:
294,200,6857,1,0,0:0:0:0:
279,298,7142,1,8,0:0:0:0:
373,329,7428,2,0,L|380:265,2,50,0|0|8,0:0|0:0|0:0,0:0:0:0:
336,364,7857,6,0,B|288:378|288:378|175:372,1,150,4|8,0:0|0:0,0:0:0:0:
101,322,8571,2,0,B|121:284|154:258|191:245,1,100,0|8,0:0|0:0,0:0:0:0:
254,196,9142,2,0,B|228:163|194:142|158:131,1,100,0|8,0:0|0:0,0:0:0:0:
79,160,9714,2,0,L|90:221,2,50,8|0|8,0:0|0:0|0:0,0:0:0:0:
86,110,10142,6,0,B|122:70|122:70|214:17,1,150,4|8,0:0|0:0,0:0:0:0:
295,62,10857,1,0,0:0:0:0:
391,33,11142,1,8,0:0:0:0:
452,113,11428,2,0,L|442:228,1,100,0|8,0:0|0:0,0:0:0:0:
443,312,12000,2,0,L|509:300,2,50,0|0|8,0:0|0:0|0:0,0:0:0:0:
393,323,12428,6,0,B|341:306|341:306|248:240,1,150,4|8,0:0|0:0,0:0:0:0:
221,163,13142,1,0,0:0:0:0:
272,77,13428,1,8,0:0:0:0:
364,113,13714,2,0,L|425:104,2,50,0|0|8,0:0|0:0|0:0,0:0:0:0:
346,211,14285,2,0,L|414:202,2,50,0|0|8,0:0|0:0|0:0,0:0:0:0:
297,221,14714,6,0,B|251:197|251:197|171:120,1,150,4|8,0:0|0:0,0:0:0:0:
212,33,15428,2,0,L|327:18,1,100,0|8,0:0|0:0,0:0:0:0:
409,39,16000,1,0,0:0:0:0:
395,137,16285,1,8,0:0:0:0:
411,235,16571,2,0,L|483:220,2,50,0|0|8,0:0|0:0|0:0,0:0:0:0:
362,249,17000,6,0,B|286:246|286:246|259:255|259:255|192:250,1,150,4|8,0:0|0:0,0:0:0:0:
117,225,17714,1,0,0:0:0:0:
86,130,18000,1,8,0:0:0:0:
184,147,18285,2,0,L|240:151,2,50,0|8|8,0:3|0:3|0:3,0:0:0:0:
150,52,18857,1,4,0:3:0:0:
249,60,19142,2,0,L|308:63,1,50,4|4,0:3|0:0,0:0:0:0:
400,297,23857,6,0,B|353:299|353:299|330:293|330:293|252:286,1,150,4|8,0:0|0:0,0:0:0:0:
177,231,24571,2,0,B|191:196|222:173|256:168,1,100,0|8,0:0|0:0,0:0:0:0:
295,191,25000,2,0,B|352:197|352:197|456:188,1,150,0|8,0:0|0:0,0:0:0:0:
503,106,25714,1,0,0:0:0:0:
433,33,26000,1,8,0:0:0:0:
390,59,26142,6,0,B|304:67|304:67|286:62|286:62|232:66,1,150,0|8,0:0|0:0,0:0:0:0:
168,137,26857,2,0,L|68:122,1,100,0|8,0:0|0:0,0:0:0:0:
35,158,27285,2,0,B|66:200|66:200|100:293,1,150,0|8,0:0|0:0,0:0:0:0:
196,343,28000,2,0,L|254:358,2,50,0|0|8,0:0|0:0|0:0,0:0:0:0:
185,294,28428,6,0,B|235:269|235:269|250:268|250:268|332:236,1,150,0|8,0:0|0:0,0:0:0:0:
359,148,29142,2,0,B|342:111|309:89|272:84,1,100,0|8,0:0|0:0,0:0:0:0:
237,104,29571,2,0,B|163:113|163:113|86:109,1,150,0|8,0:0|0:0,0:0:0:0:
19,182,30285,2,0,B|47:203|82:209|113:201,1,100,0|8,0:0|0:0,0:0:0:0:
163,194,30714,6,0,B|246:200|246:200|266:206|266:206|324:206,1,150,0|8,0:0|0:0,0:0:0:0:
406,174,31428,2,0,L|401:106,2,50,0|0|0,0:0|0:0|0:0,0:0:0:0:
419,222,31857,2,0,B|402:279|402:279|372:320,1,100,0|8,0:0|0:0,0:0:0:0:
333,333,32285,1,8,0:0:0:0:
243,289,32571,2,0,L|175:283,2,50,8|8|4,0:0|0:3|0:3,0:0:0:0:
277,252,33000,6,0,B|257:204|257:204|221:172|221:172|193:125,1,150,4|8,0:0|0:0,0:0:0:0:
191,29,33714,2,0,B|224:13|259:12|290:23,1,100,0|8,0:0|0:0,0:0:0:0:
323,61,34142,2,0,B|417:71|417:71|434:69|434:69|486:75,1,150,0|8,0:0|0:0,0:0:0:0:
421,160,34857,2,0,L|366:169,2,50,0|0|8,0:0|0:0|0:0,0:0:0:0:
463,187,35285,6,0,B|468:224|468:224|461:248|461:248|472:291|455:350,1,150,0|8,0:0|0:0,0:0:0:0:
366,296,36000,2,0,B|326:289|287:295|254:311,1,100,0|8,0:0|0:0,0:0:0:0:
226,334,36428,2,0,B|206:284|206:284|198:174,1,150,0|8,0:0|0:0,0:0:0:0:
246,99,37142,2,0,L|306:108,2,50,0|0|0,0:0|0:0|0:0,0:0:0:0:
199,79,37571,6,0,B|145:93|145:93|44:151,1,150,0|8,0:0|0:0,0:0:0:0:
91,235,38285,2,0,L|200:227,1,100,0|8,0:0|0:0,0:0:0:0:
229,259,38714,2,0,B|280:267|280:267|386:255,1,150,0|8,0:0|0:0,0:0:0:0:
444,181,39428,1,0,0:0:0:0:
363,120,39714,1,8,0:0:0:0:
313,128,39857,6,0,B|275:122|275:122|261:110|261:110|169:80,1,150,0|8,0:0|0:0,0:0:0:0:
75,56,40571,2,0,B|65:91|77:126|101:150,1,100,0|8,0:0|0:0,0:0:0:0:
147,165,41000,2,0,B|154:326,1,150,4|8,0:0|0:0,0:0:0:0:
251,296,41714,2,0,L|258:224,2,50,0|0|8,0:0|0:0|0:0,0:0:0:0:
281,328,42142,6,0,B|331:320|331:320|419:278,1,134.999995880127,4|8,0:0|0:0,0:0:0:0:
444,201,42857,2,0,B|405:177|405:177|349:158,1,89.9999972534181,8|8,0:3|0:0,0:0:0:0:
287,203,43428,2,0,L|196:216,1,89.9999972534181,0|8,0:0|0:0,0:0:0:0:
132,152,44000,2,0,B|95:124|95:124|46:101,1,89.9999972534181,8|8,0:3|0:0,0:0:0:0:
29,142,44428,6,0,B|38:284,1,134.999995880127,4|8,0:0|0:0,0:0:0:0:
112,327,45142,2,0,B|157:338|157:338|214:336,1,89.9999972534181,0|8,0:0|0:0,0:0:0:0:
277,289,45714,2,0,L|260:184,2,89.9999972534181,8|8|8,0:0|0:0|0:0,0:0:0:0:
337,355,46571,1,4,0:3:0:0:
375,323,46714,6,0,B|395:298|395:298|400:269|400:269|426:231|435:168,1,150,4|8,0:0|0:0,0:0:0:0:
385,98,47428,2,0,B|325:110|325:110|268:105,1,100,0|8,0:0|0:0,0:0:0:0:
195,63,48000,2,0,B|160:69|132:93|120:124,1,100,0|8,0:0|0:0,0:0:0:0:
115,220,48571,2,0,L|61:235,2,50,0|0|8,0:0|0:0|0:0,0:0:0:0:
165,215,49000,6,0,B|226:222|226:222|266:237,1,100,4|0,0:0|0:0,0:0:0:0:
308,255,49428,1,8,0:0:0:0:
299,354,49714,2,0,B|337:361|374:347|399:322,1,100,0|8,0:0|0:0,0:0:0:0:
436,238,50285,2,0,L|421:131,1,100,0|8,0:0|0:0,0:0:0:0:
332,94,50857,2,0,B|272:113|272:113|231:142,1,100,0|8,0:0|0:0,0:0:0:0:
237,182,51285,6,0,B|190:226|190:226|102:272,1,150,4|8,0:0|0:0,0:0:0:0:
116,366,52000,2,0,L|206:317,1,100,0|8,0:0|0:0,0:0:0:0:
304,313,52571,2,0,L|292:377,2,50,0|0|8,0:0|0:0|0:0,0:0:0:0:
320,216,53142,2,0,B|329:175|352:142|383:119,1,100,0|8,0:0|0:0,0:0:0:0:
364,80,53571,6,0,B|330:60|330:60|299:60|299:60|217:40,1,150,4|8,0:0|0:0,0:0:0:0:
129,74,54285,2,0,L|138:185,1,100,0|8,0:0|0:0,0:0:0:0:
178,265,54857,1,0,0:0:0:0:
257,204,55142,2,0,B|292:178|334:171|373:179,2,100,8|8|8,0:0|0:3|0:0,0:0:0:0:
267,257,55857,6,0,B|306:293|306:293|342:296|342:296|384:311|425:309,1,150,4|8,0:0|0:0,0:0:0:0:
472,230,56571,2,0,L|457:113,1,100,0|8,0:0|0:0,0:0:0:0:
367,164,57142,2,0,B|305:173|305:173|257:166,1,100,0|8,0:0|0:0,0:0:0:0:
194,232,57714,2,0,L|246:251,2,50,0|0|8,0:0|0:0|0:0,0:0:0:0:
172,186,58142,6,0,B|157:125|157:125|134:84,1,100,4|0,0:0|0:0,0:0:0:0:
106,57,58571,1,8,0:0:0:0:
77,152,58857,2,0,L|66:254,1,100,0|8,0:0|0:0,0:0:0:0:
68,351,59428,2,0,B|101:328|101:328|172:306,1,100,0|8,0:0|0:0,0:0:0:0:
259,315,60000,2,0,L|251:378,2,50,0|0|8,0:0|0:0|0:0,0:0:0:0:
262,265,60428,6,0,B|268:231|268:231|283:214|283:214|298:168|361:144,1,150,4|8,0:0|0:0,0:0:0:0:
426,90,61142,2,0,B|398:58|355:47|318:57,1,100,0|8,0:0|0:0,0:0:0:0:
236,60,61714,2,0,L|223:-10,2,50,0|0|8,0:0|0:0|0:0,0:0:0:0:
244,160,62285,2,0,B|211:187|170:195|132:186,1,100,0|0,0:0|0:0,0:0:0:0:
121,229,62714,6,0,B|168:264|168:264|270:284,1,150,4|8,0:0|0:0,0:0:0:0:
328,210,63428,2,0,B|347:175|383:157|419:158,1,100,0|8,0:0|0:0,0:0:0:0:
416,257,64000,2,0,L|428:369,2,100,0|8|8,0:0|0:0|0:0,0:0:0:0:
328,210,64857,2,0,L|264:220,1,50,4|4,0:3|0:3,0:0:0:0:
244,247,65142,5,4,0:0:0:0:
392,144,65713,1,8,0:0:0:0:
335,74,65999,2,0,B|281:60|227:66,1,89.9999972534181,,,0:0:0:0:
111,183,66836,1,8,0:0:0:0:
206,329,67389,6,0,L|308:324,2,89.9999972534181,0|0|8,0:0|0:0|0:0,0:0:0:0:
118,309,68226,1,0,0:0:0:0:
53,244,68505,2,0,B|39:209|37:173|43:140,1,89.9999972534181,,,0:0:0:0:
122,121,69055,2,0,B|159:109|188:85|209:56,1,89.9999972534181,,,0:0:0:0:
256,6,69610,5,4,0:0:0:0:
256,185,70155,1,8,0:0:0:0:
327,131,70438,2,0,B|373:108|424:103,1,89.9999972534181,,,0:0:0:0:
359,278,71279,1,8,0:0:0:0:
217,165,71837,6,0,B|163:160|109:151,2,89.9999972534181,0|0|8,0:0|0:0|0:0,0:0:0:0:
276,233,72665,2,0,B|214:269|179:333|176:399,1,179.999994506836,,,0:0:0:0:
107,320,73494,1,8,0:0:0:0:
94,230,73770,1,8,0:0:0:0:
23,286,74046,5,4,0:0:0:0:
65,114,74598,1,8,0:0:0:0:
148,147,74879,2,0,L|250:154,1,89.9999972534181,,,0:0:0:0:
356,301,75706,1,8,0:0:0:0:
177,323,76258,6,0,B|172:267|149:217,2,89.9999972534181,0|0|8,0:0|0:0|0:0,0:0:0:0:
252,382,77085,1,0,0:0:0:0:
267,293,77361,2,0,B|283:256|312:231|346:219,1,89.9999972534181,,,0:0:0:0:
380,149,77913,2,0,B|366:116|343:90|316:71,1,89.9999972534181,8|8,0:0|0:3,0:0:0:0:
247,34,78473,5,4,0:0:0:0:
181,201,79039,1,8,0:0:0:0:
124,131,79314,2,0,B|79:105|29:98,1,89.9999972534181,,,0:0:0:0:
116,263,80144,1,8,0:0:0:0:
240,130,80700,6,0,B|245:79|250:29,2,89.9999972534181,0|0|8,0:0|0:0|0:0,0:0:0:0:
281,209,81525,2,0,B|324:150|406:138|464:177,1,179.999994506836,,,0:0:0:0:
407,248,82351,1,8,0:0:0:0:
421,336,82626,1,8,0:0:0:0:
490,279,82901,5,2,0:0:0:0:
138,195,91784,6,0,L|321:220,1,179.999994506836,6|8,0:0|0:0,0:0:0:0:
404,194,92610,1,0,0:0:0:0:
442,112,92889,2,0,L|340:100,1,89.9999972534181,2|0,0:0|0:0,0:0:0:0:
284,48,93443,2,0,L|182:36,1,89.9999972534181,8|0,0:0|0:0,0:0:0:0:
128,100,93997,6,0,L|140:280,1,179.999994506836,2|8,0:0|0:0,0:0:0:0:
172,364,94828,1,0,0:0:0:0:
260,348,95105,2,0,L|365:340,1,89.9999972534181,2|0,0:0|0:0,0:0:0:0:
436,320,95659,2,0,B|469:311|491:283|496:253,1,89.9999972534181,8|0,0:0|0:3,0:0:0:0:
407,233,96213,6,0,L|210:246,1,179.999994506836,2|8,0:0|0:0,0:0:0:0:
144,210,97038,1,0,0:0:0:0:
217,157,97313,2,0,L|317:151,2,89.9999972534181,2|0|8,0:0|0:0|0:0,0:0:0:0:
133,122,98139,1,0,0:0:0:0:
62,176,98414,6,0,L|75:373,1,179.999994506836,2|8,0:0|0:0,0:0:0:0:
158,325,99249,1,0,0:0:0:0:
231,273,99527,1,2,0:0:0:0:
133,122,100084,1,8,0:0:0:0:
343,73,100641,6,0,B|410:64|410:64|456:72,1,100,8|8,0:0|0:0,0:0:0:0:
391,157,101203,2,0,B|320:168|320:168|291:166,1,100,8|8,0:0|0:0,0:0:0:0:
220,236,101765,2,0,B|282:246|282:246|332:249,1,100,8|8,0:0|0:0,0:0:0:0:
253,323,102336,2,0,B|186:311|186:311|153:311,1,100,8|8,0:0|0:0,0:0:0:0:
83,240,102907,6,0,B|86:177|86:177|104:129,1,100,8|8,0:0|0:0,0:0:0:0:
199,154,103479,1,8,0:0:0:0:
292,118,103765,1,8,0:0:0:0:
352,36,104050,1,8,0:0:0:0:
271,213,105050,6,0,B|242:219|222:214|222:214|203:203|203:203|116:189,1,150,4|8,0:0|0:0,0:0:0:0:
52,260,105765,2,0,B|89:281|89:281|165:299,1,100,0|8,0:0|0:0,0:0:0:0:
244,304,106336,1,0,0:0:0:0:
341,283,106622,1,8,0:0:0:0:
440,294,106907,2,0,L|454:362,2,50,0|0|8,0:0|0:0|0:0,0:0:0:0:
425,245,107336,6,0,B|418:206|418:206|426:128,1,100,4|0,0:0|0:0,0:0:0:0:
445,100,107765,1,8,0:0:0:0:
395,13,108050,2,0,B|332:17|332:17|279:36,1,100,0|8,0:0|0:0,0:0:0:0:
236,110,108622,2,0,L|357:123,1,100,0|8,0:0|0:0,0:0:0:0:
344,220,109193,2,0,B|292:254|292:254|241:269,1,100,0|8,0:0|0:0,0:0:0:0:
219,231,109622,6,0,B|167:184|167:184|142:175|142:175|94:140,1,150,4|8,0:0|0:0,0:0:0:0:
63,53,110336,2,0,B|102:35|142:29|181:33,1,100,0|8,0:0|0:0,0:0:0:0:
252,70,110907,2,0,L|244:135,2,50,0|0|8,0:0|0:0|0:0,0:0:0:0:
345,34,111479,2,0,B|391:76|391:76|414:115,1,100,0|8,0:0|0:0,0:0:0:0:
386,151,111907,6,0,B|380:206|380:206|402:313,1,150,4|8,0:0|0:0,0:0:0:0:
299,294,112622,2,0,B|250:280|250:280|182:276,1,100,0|8,0:0|0:0,0:0:0:0:
105,253,113193,1,0,0:0:0:0:
124,154,113479,2,0,L|243:135,2,100,8|8|8,0:0|0:3|0:0,0:0:0:0:
84,122,114193,6,0,B|87:95|103:73|103:73|122:63|122:63|149:24|193:2,1,150,4|8,0:0|0:0,0:0:0:0:
260,72,114907,2,0,B|303:97|303:97|363:113,1,100,0|8,0:0|0:0,0:0:0:0:
381,206,115479,2,0,B|330:218|330:218|260:213,1,100,0|8,0:0|0:0,0:0:0:0:
190,180,116050,2,0,L|194:115,2,50,0|0|8,0:0|0:0|0:0,0:0:0:0:
196,229,116479,6,0,B|201:293|201:293|194:337,1,100,4|0,0:0|0:0,0:0:0:0:
167,369,116907,1,8,0:0:0:0:
94,299,117193,2,0,B|69:266|69:266|16:222,1,100,0|8,0:0|0:0,0:0:0:0:
24,128,117765,2,0,B|74:104|74:104|118:96,1,100,0|8,0:0|0:0,0:0:0:0:
212,129,118336,2,0,L|220:197,2,50,0|0|8,0:0|0:0|0:0,0:0:0:0:
212,79,118765,6,0,B|238:57|238:57|271:47|271:47|357:5,1,150,4|8,0:0|0:0,0:0:0:0:
442,27,119479,2,0,B|415:72|415:72|379:105,1,100,0|8,0:0|0:0,0:0:0:0:
290,148,120050,2,0,B|259:188|259:188|233:247,1,100,0|8,0:0|0:0,0:0:0:0:
188,320,120622,2,0,B|156:301|139:268|139:233,1,100,0|8,0:0|0:0,0:0:0:0:
138,187,121050,6,0,B|137:152|113:126|113:126|113:107|113:107|88:82|72:35,1,150,4|8,0:0|0:0,0:0:0:0:
178,42,121765,2,0,B|220:45|220:45|292:39,1,100,0|8,0:0|0:0,0:0:0:0:
374,15,122336,1,0,0:0:0:0:
406,109,122622,2,0,L|299:125,2,100,8|8|0,0:0|0:0|0:0,0:0:0:0:
453,125,123336,6,0,B|469:155|469:155|465:179|465:179|485:237|452:283,1,150,4|8,0:0|0:0,0:0:0:0:
373,219,124050,2,0,B|326:203|326:203|264:196,2,100,0|8|0,0:0|0:0|0:0,0:0:0:0:
373,319,124907,1,8,0:0:0:0:
280,356,125193,2,0,L|214:363,2,50,0|0|8,0:0|0:0|0:0,0:0:0:0:
291,306,125622,6,0,B|270:289|270:289|242:281|242:281|206:247|155:221,1,150,4|8,0:0|0:0,0:0:0:0:
107,145,126336,2,0,B|156:137|156:137|226:140,1,100,0|8,0:0|0:0,0:0:0:0:
297,181,126907,1,0,0:0:0:0:
358,259,127193,1,8,0:0:0:0:
456,242,127479,1,0,0:0:0:0:
491,148,127765,1,8,0:0:0:0:
461,107,127907,6,0,B|430:78|430:78|417:73|417:73|388:39|329:31,1,150,4|8,0:0|0:0,0:0:0:0:
241,69,128622,1,0,0:0:0:0:
179,145,128907,1,8,0:0:0:0:
83,114,129193,2,0,L|89:57,2,50,0|0|8,0:0|0:0|0:0,0:0:0:0:
104,211,129765,2,0,B|157:252|157:252|181:279,1,100,0|8,0:0|0:0,0:0:0:0:
207,316,130193,6,0,B|265:339|265:339|286:335|286:335|316:343|364:331,1,150,4|8,0:0|0:0,0:0:0:0:
382,238,130907,2,0,L|283:247,1,100,0|8,0:0|0:0,0:0:0:0:
189,218,131479,1,0,0:0:0:0:
265,153,131765,2,0,B|314:149|314:149|367:134,2,100,8|8|8,0:0|0:0|0:0,0:0:0:0:
219,133,132479,6,0,B|182:90|120:84|76:113,1,150,4|0,0:0|0:0,0:0:0:0:
55,204,133193,2,0,B|103:227|103:227|150:273,1,100,8|0,0:0|0:0,0:0:0:0:
150,353,133765,2,0,L|38:369,2,100,0|0|8,0:0|0:0|0:0,0:0:0:0:
236,301,134622,1,0,0:0:0:0:
266,257,134765,6,0,B|271:230|271:230|278:214|278:214|226:190|219:147|223:113,1,150,4|0,0:0|0:0,0:0:0:0:
283,55,135479,2,0,L|392:68,1,100,8|0,0:0|0:0,0:0:0:0:
456,135,136050,1,0,0:0:0:0:
358,158,136336,1,0,0:0:0:0:
261,183,136622,2,0,L|254:238,2,50,8|8|8,0:0|0:0|0:0,0:0:0:0:
276,135,137050,6,0,B|297:97|287:50|253:22|215:18,1,150,4|0,0:0|0:0,0:0:0:0:
124,46,137765,2,0,B|111:91|111:91|108:156,1,100,8|0,0:0|0:0,0:0:0:0:
156,231,138336,2,0,B|223:225|223:225|275:235,2,100,0|0|8,0:0|0:0|0:0,0:0:0:0:
173,329,139193,1,0,0:0:0:0:
216,352,139336,6,0,B|268:378|330:352|350:298,1,150,4|0,0:0|0:0,0:0:0:0:
367,212,140050,2,0,B|378:102,1,100,8|0,0:0|0:0,0:0:0:0:
283,76,140622,2,0,L|288:134,2,50,8|8|8,0:0|0:0|0:0,0:0:0:0:
195,124,141193,2,0,L|186:177,2,50,8|8|4,0:0|0:3|0:3,0:0:0:0:
174,78,141622,5,4,0:0:0:0:
256,192,141765,12,0,146336,0:0:0:0:
